osu file format v14

[General]
AudioFilename: monochromerainbow.mp3
AudioLeadIn: 1500
PreviewTime: 56295
Countdown: 0
SampleSet: Soft
StackLeniency: 0.9
Mode: 0
LetterboxInBreaks: 0
WidescreenStoryboard: 1

[Editor]
Bookmarks: 456,14470,42499,56514,84543,98558,126587,140601,168631,182645,196660,224689,238704,247463
DistanceSpacing: 1.2
BeatDivisor: 4
GridSize: 4
TimelineZoom: 0.6999997

[Metadata]
Title:monochrome rainbow
TitleUnicode:monochrome rainbow
Artist:Tommy heavenly6
ArtistUnicode:Tommy heavenly6
Creator:Damnae
Version:Normal
Source:バクマン。
Tags:bakuman february6 ending ed Tomoko Kawase
BeatmapID:412955
BeatmapSetID:161657

[Difficulty]
HPDrainRate:3
CircleSize:3
OverallDifficulty:4
ApproachRate:5
SliderMultiplier:1
SliderTickRate:1

[Events]
//Background and Video events
0,0,"bg.png",0,0
//Break Periods
//Storyboard Layer 0 (Background)
//Storyboard Layer 1 (Fail)
//Storyboard Layer 2 (Pass)
//Storyboard Layer 3 (Foreground)
//Storyboard Sound Samples

[TimingPoints]
456,437.956204379562,4,2,1,70,1,0
456,-100,4,2,1,70,0,0
14470,-100,4,2,1,47,0,0
39653,-100,4,2,1,20,0,0
39872,-100,4,2,1,40,0,0
40528,-100,4,2,1,20,0,0
41185,-100,4,2,1,50,0,0
41623,-100,4,2,1,30,0,0
42499,-100,4,2,1,60,0,0
56514,-100,4,2,1,70,0,1
84215,-100,4,2,1,50,0,1
84543,-100,4,2,1,70,0,1
98558,-100,4,2,1,70,0,0
98996,-100,4,2,1,47,0,0
124178,-100,4,2,1,30,0,0
124397,-100,4,2,1,40,0,0
124835,-100,4,2,1,30,0,0
125273,-100,4,2,1,40,0,0
126587,-100,4,2,1,60,0,0
140601,-100,4,2,1,70,0,1
168302,-100,4,2,1,50,0,1
168631,-100,4,2,1,60,0,1
182645,-100,4,2,2,60,0,0
183302,-100,4,2,2,50,0,0
183740,-100,4,2,2,60,0,0
184616,-100,4,2,2,40,0,0
184835,-100,4,2,2,60,0,0
185492,-100,4,2,2,50,0,0
185711,-100,4,2,2,60,0,0
186806,-100,4,2,2,50,0,0
187244,-100,4,2,2,60,0,0
188558,-100,4,2,2,50,0,0
188996,-100,4,2,2,60,0,0
190310,-100,4,2,2,50,0,0
190528,-100,4,2,2,60,0,0
191623,-100,4,2,2,50,0,0
191842,-100,4,2,2,60,0,0
192499,-100,4,2,2,40,0,0
192609,-100,4,2,2,60,0,0
193813,-100,4,2,2,50,0,0
194032,-100,4,2,2,60,0,0
196003,-100,4,2,2,40,0,0
196112,-100,4,2,2,60,0,0
196441,-100,4,2,2,40,0,0
196660,-100,4,2,3,70,0,1
223375,-100,4,2,3,60,0,1
223594,-100,4,2,3,70,0,1
224032,-100,4,2,2,60,0,1
224689,-100,4,2,3,60,0,1
238704,-100,4,2,3,50,0,0
243959,-100,4,2,1,5,0,0

[Colours]
Combo1 : 255,94,55
Combo2 : 173,255,95
Combo3 : 17,254,176
Combo4 : 255,88,100

[HitObjects]
35,65,456,6,0,B|67:50|103:56|130:75,1,100,0|8,1:0|0:0,0:0:0:0:
165,111,1112,2,0,B|194:131|229:133|259:120,1,100,0|8,1:0|0:0,0:0:0:0:
308,105,1769,1,0,1:0:0:0:
389,47,2207,6,0,B|413:81|412:123|392:155,1,100,0|8,1:0|0:0,0:0:0:0:
363,177,2864,2,0,B|348:209|354:245|373:272,1,100,0|8,1:0|0:0,0:0:0:0:
389,320,3521,2,0,L|441:338,2,50,0|0|0,1:0|1:0|1:0,0:0:0:0:
291,344,4397,5,8,0:0:0:0:
291,344,4616,2,0,B|241:310|182:301|128:313,1,150,0|0,1:0|1:0,0:0:0:0:
100,221,5711,2,0,B|153:227|203:213|243:185,2,150,0|0|0,1:0|1:0|1:0,0:0:0:0:
6,184,7463,6,0,B|-7:217|-2:252|16:279,1,100,0|8,1:0|0:0,0:0:0:0:
50,315,8120,2,0,B|101:318|149:329,1,100,0|8,1:0|0:0,0:0:0:0:
185,364,8776,1,0,1:0:0:0:
242,281,9215,6,0,B|266:247|265:205|245:173,1,100,0|8,1:0|0:0,0:0:0:0:
220,147,9872,2,0,B|169:159|119:162,1,100,0|8,1:0|0:0,0:0:0:0:
90,122,10528,2,0,L|108:70,2,50,0|0|0,1:0|1:0|1:0,0:0:0:0:
3,172,11404,5,8,0:0:0:0:
3,172,11623,2,0,B|37:222|46:281|34:335,1,150,0|0,1:0|1:0,0:0:0:0:
137,303,12718,2,0,L|119:355,2,50,8|0|0,0:0|1:0|1:0,0:0:0:0:
184,320,13375,2,0,B|265:300|336:260,1,150,8|0,2:0|1:2,0:0:0:0:
402,204,14470,5,0,1:0:0:0:
312,162,14908,1,8,0:0:0:0:
312,162,15127,1,2,0:0:0:0:
312,161,15346,2,0,B|262:173|212:161,2,100,8|8|8,0:0|0:0|0:0,0:0:0:0:
365,77,16660,1,8,0:0:0:0:
365,77,16879,1,2,0:0:0:0:
364,77,17098,2,0,B|414:65|464:77,2,100,8|8|8,0:0|0:0|0:0,0:0:0:0:
271,112,18412,6,0,L|252:62,1,50,8|0,0:0|0:0,0:0:0:0:
209,89,18850,2,0,B|159:101|109:89,1,100,8|8,0:0|0:0,0:0:0:0:
39,160,19726,6,0,B|51:210|39:260,1,100,8|8,0:0|0:0,0:0:0:0:
18,304,20383,1,2,0:0:0:0:
63,283,20601,2,0,B|113:271|163:283,1,100,8|8,0:0|0:0,0:0:0:0:
207,304,21258,1,0,0:0:0:0:
207,304,21477,1,8,0:0:0:0:
285,241,21915,5,8,0:0:0:0:
335,246,22134,1,2,0:0:0:0:
384,252,22353,2,0,B|390:303|373:351,2,100,8|8|8,0:0|0:0|0:0,0:0:0:0:
395,151,23667,1,8,0:0:0:0:
344,146,23886,1,2,0:0:0:0:
294,140,24105,2,0,B|287:89|304:40,2,100,8|8|8,0:0|0:0|0:0,0:0:0:0:
203,182,25419,6,0,L|153:201,1,50,8|0,0:0|0:0,0:0:0:0:
180,244,25857,2,0,B|192:294|180:344,1,100,8|8,0:0|0:0,0:0:0:0:
82,321,26733,6,0,B|70:271|82:221,1,100,8|8,0:0|0:0,0:0:0:0:
99,175,27390,1,2,0:0:0:0:
136,144,27609,2,0,B|186:132|235:144,1,100,8|8,0:0|0:0,0:0:0:0:
312,208,28485,6,0,B|323:258|311:307,1,100,8|8,0:0|0:0,0:0:0:0:
300,355,29142,1,2,0:0:0:0:
300,355,29361,1,8,0:0:0:0:
204,324,29799,6,0,B|192:274|204:224,1,100,8|8,0:0|0:0,0:0:0:0:
274,154,30674,2,0,L|334:168,2,50,8|2|8,0:0|0:0|0:0,0:0:0:0:
203,83,31550,2,0,L|143:97,1,50,8|0,0:0|0:0,0:0:0:0:
118,129,31988,6,0,B|106:179|118:228,1,100,8|8,0:0|0:0,0:0:0:0:
130,276,32645,1,2,0:0:0:0:
130,276,32864,1,8,0:0:0:0:
226,245,33302,6,0,B|237:195|225:145,1,100,8|8,0:0|0:0,0:0:0:0:
296,75,34178,2,0,L|282:15,2,50,8|2|8,0:0|0:0|0:0,0:0:0:0:
331,110,34835,1,0,0:0:0:0:
366,145,35054,2,0,L|352:205,1,50,8|2,0:0|0:0,0:0:0:0:
318,229,35492,6,0,B|306:279|318:329,1,100,8|8,0:0|0:0,0:0:0:0:
415,304,36368,2,0,B|427:254|415:204,1,100,8|8,0:0|0:0,0:0:0:0:
398,158,37025,1,2,0:0:0:0:
361,127,37244,2,0,B|311:115|262:127,1,100,8|8,0:0|0:0,0:0:0:0:
261,227,38120,6,0,L|201:241,1,50,8|2,0:0|0:0,0:0:0:0:
163,250,38558,2,0,L|103:264,1,50,8|2,0:0|0:0,0:0:0:0:
64,261,38996,6,0,B|52:211|64:161,1,100,8|8,0:0|0:0,0:0:0:0:
81,115,39653,1,2,0:0:0:0:
118,84,39872,2,0,B|168:72|217:84,1,100,8|8,0:0|0:0,0:0:0:0:
287,154,40747,2,0,B|299:204|287:253,1,100,8|8,0:0|0:0,0:0:0:0:
188,273,41623,2,0,B|176:223|188:174,1,100,0|0,1:0|1:0,1:0:0:0:
143,149,42280,1,0,1:0:0:0:
143,149,42499,5,8,2:0:0:0:
36,168,42937,1,0,1:0:0:0:
36,168,43156,2,0,B|61:251|60:336,1,150,0|0,1:0|1:0,0:0:0:0:
152,356,44251,5,8,2:0:0:0:
228,292,44689,1,0,1:0:0:0:
228,292,44908,2,0,B|311:267|396:268,1,150,0|0,1:0|1:0,0:0:0:0:
456,208,46003,6,0,B|475:151|472:92,1,100,8|0,0:0|1:0,0:0:0:0:
476,60,46660,2,0,B|399:56|328:36,1,150,0|0,1:0|1:0,0:0:0:0:
240,88,47755,6,0,B|259:145|256:204,1,100,8|0,0:0|1:0,0:0:0:0:
228,228,48412,2,0,B|177:228|129:244,1,100,0|8,1:0|2:0,0:0:0:0:
88,272,49069,2,0,B|68:274|48:271|31:263,1,50,0|8,1:0|0:0,0:0:0:0:
0,236,49507,5,8,2:0:0:0:
20,136,49945,1,0,1:0:0:0:
20,136,50164,2,0,B|97:134|168:113,1,150,0|0,1:0|1:0,0:0:0:0:
256,64,51259,5,8,2:0:0:0:
248,164,51697,1,0,1:0:0:0:
248,164,51916,2,0,B|251:240|271:311,1,150,0|0,1:0|1:0,0:0:0:0:
348,248,53011,6,0,B|399:249|446:263,1,100,8|0,0:0|1:0,0:0:0:0:
480,224,53668,2,0,B|484:300|504:371,2,150,0|0|0,1:0|1:0|1:0,0:0:0:0:
500,180,55200,5,0,1:0:0:0:
412,136,55638,1,0,1:0:0:0:
432,40,56076,2,0,B|409:28|383:27,1,50,0|8,1:0|2:0,0:0:0:0:
334,37,56514,6,0,B|314:91|308:146,1,100,4|8,1:0|0:0,0:0:0:0:
340,173,57171,2,0,B|360:227|366:282,1,100,0|8,1:0|0:0,0:0:0:0:
346,316,57828,1,0,1:0:0:0:
256,360,58266,5,0,1:0:0:0:
165,316,58704,1,8,0:0:0:0:
165,316,58923,1,0,1:0:0:0:
145,217,59361,2,0,L|85:206,2,50,8|0|0,0:0|1:0|1:0,0:0:0:0:
186,187,60018,6,0,B|240:167|295:161,1,100,0|8,1:0|0:0,0:0:0:0:
322,193,60675,2,0,B|376:213|431:219,1,100,0|8,1:0|0:0,0:0:0:0:
458,199,61332,1,0,1:0:0:0:
431,102,61769,5,0,1:0:0:0:
338,64,62207,1,8,2:0:0:0:
338,64,62426,2,0,B|284:84|229:90,1,100,0|0,1:0|1:0,0:0:0:0:
197,64,63083,1,4,0:3:0:0:
165,159,63521,6,0,B|185:213|191:268,1,100,0|8,1:0|0:0,0:0:0:0:
176,304,64178,2,0,B|122:324|67:330,1,100,0|8,1:0|0:0,0:0:0:0:
33,310,64835,1,0,1:0:0:0:
6,213,65273,5,0,1:0:0:0:
79,145,65711,1,8,0:0:0:0:
79,145,65930,1,0,1:0:0:0:
170,184,66368,1,8,0:0:0:0:
170,184,66587,2,0,L|230:195,1,50,0|0,1:0|1:0,0:0:0:0:
261,167,67025,6,0,B|315:147|370:141,1,100,0|8,1:0|0:0,0:0:0:0:
406,156,67682,2,0,B|426:210|432:265,1,100,0|8,1:0|0:0,0:0:0:0:
399,299,68339,2,0,B|345:319|290:325,1,100,0|8,1:0|0:0,0:0:0:0:
256,292,68996,5,0,1:0:0:0:
256,292,69215,1,0,1:0:0:0:
210,202,69653,1,0,1:3:0:0:
256,113,70091,2,0,L|316:124,1,50,8|8,2:0|2:3,0:0:0:0:
341,87,70529,6,0,B|395:67|450:61,1,100,0|8,1:0|0:0,0:0:0:0:
475,94,71185,2,0,B|455:148|449:203,1,100,0|8,1:0|0:0,0:0:0:0:
478,232,71842,1,0,1:3:0:0:
378,244,72280,6,0,B|324:224|269:218,1,100,0|8,1:0|0:0,0:0:0:0:
238,245,72937,2,0,B|231:295|213:341,1,100,0|8,1:0|0:0,0:0:0:0:
173,371,73593,1,0,1:3:0:0:
78,336,74032,5,0,1:0:0:0:
66,236,74470,1,8,2:0:0:0:
66,236,74689,1,0,1:0:0:0:
155,190,75127,1,8,0:0:0:0:
155,190,75346,1,0,1:0:0:0:
238,245,75784,6,0,B|292:265|347:271,1,100,0|8,1:0|0:0,0:0:0:0:
372,238,76441,2,0,B|352:184|346:129,1,100,0|8,1:0|0:0,0:0:0:0:
375,100,77098,2,0,L|435:111,2,50,0|8|0,1:0|2:0|1:0,0:0:0:0:
278,71,77974,5,8,2:0:0:0:
278,71,78193,2,0,B|224:91|169:97,1,100,0|0,1:0|1:0,0:0:0:0:
137,71,78850,1,0,1:3:0:0:
111,167,79288,6,0,B|131:221|137:276,1,100,0|8,1:0|2:0,0:0:0:0:
181,283,79945,2,0,B|231:289|277:307,1,100,0|8,1:0|2:0,0:0:0:0:
326,294,80601,1,0,1:0:0:0:
282,204,81039,6,0,B|302:150|308:95,1,100,0|8,1:0|2:0,0:0:0:0:
352,88,81696,2,0,B|402:81|448:63,1,100,0|0,1:0|1:0,0:0:0:0:
491,77,82352,1,0,1:0:0:0:
480,176,82791,1,0,1:0:0:0:
397,232,83229,1,8,2:0:0:0:
397,232,83448,2,0,B|403:282|421:328,2,100,0|0|4,1:0|1:0|0:3,0:0:0:0:
365,192,84543,6,0,B|294:163|218:166,1,150,0|0,1:0|1:0,0:0:0:0:
119,150,85638,1,8,0:2:0:0:
119,150,85857,2,0,B|137:197|135:247,1,100,0|0,1:0|1:0,0:0:0:0:
121,347,86733,5,8,0:0:0:0:
120,347,86952,2,0,B|190:317|266:321,1,150,0|0,1:0|1:0,0:0:0:0:
364,342,88047,6,0,B|392:271|389:195,1,150,0|0,1:0|1:0,0:0:0:0:
406,96,89142,1,8,0:2:0:0:
406,96,89361,2,0,B|358:114|308:112,1,100,0|0,1:0|1:0,0:0:0:0:
209,98,90237,5,8,0:0:0:0:
209,97,90456,2,0,B|237:168|234:243,1,150,0|0,1:0|1:0,0:0:0:0:
168,319,91550,6,0,B|97:290|21:293,1,150,0|0,1:0|1:0,0:0:0:0:
61,201,92645,1,8,0:2:0:0:
61,201,92864,2,0,B|41:154|44:103,1,100,0|0,1:0|1:0,0:0:0:0:
121,39,93740,5,8,0:0:0:0:
121,39,93959,2,0,B|192:67|267:64,1,150,0|0,1:0|1:0,0:0:0:0:
366,80,95054,6,0,B|394:151|391:226,1,150,0|0,1:0|1:0,0:0:0:0:
349,317,96149,1,8,0:2:0:0:
349,317,96368,2,0,B|298:313|251:333,1,100,0|0,1:0|1:0,0:0:0:0:
171,272,97244,5,0,1:0:0:0:
171,273,97463,2,0,B|199:202|196:127,1,150,0|8,1:0|2:0,0:0:0:0:
140,42,98558,5,4,1:0:0:0:
69,112,98996,1,8,0:0:0:0:
69,112,99215,1,2,0:0:0:0:
70,112,99434,2,0,B|58:162|70:212,2,100,8|8|8,0:0|0:0|0:0,0:0:0:0:
140,41,100748,1,8,0:0:0:0:
140,41,100967,1,2,0:0:0:0:
140,41,101186,2,0,B|190:52|239:40,2,100,8|8|8,0:0|0:0|0:0,0:0:0:0:
175,134,102500,6,0,L|194:184,1,50,8|0,0:0|0:0,0:0:0:0:
228,216,102938,2,0,B|240:266|228:316,1,100,8|8,0:0|0:0,0:0:0:0:
130,338,103814,6,0,B|123:287|140:238,1,100,8|8,0:0|0:0,0:0:0:0:
144,188,104471,1,2,0:0:0:0:
193,194,104689,2,0,B|244:187|292:204,1,100,8|8,0:0|0:0,0:0:0:0:
341,208,105346,1,0,0:0:0:0:
341,208,105565,1,8,0:0:0:0:
371,112,106003,5,8,0:0:0:0:
321,107,106222,1,2,0:0:0:0:
272,101,106441,2,0,B|266:50|283:2,2,100,8|8|8,0:0|0:0|0:0,0:0:0:0:
201,171,107755,1,8,0:0:0:0:
150,176,107974,1,2,0:0:0:0:
100,182,108193,2,0,B|93:233|110:282,2,100,8|8|8,0:0|0:0|0:0,0:0:0:0:
131,86,109507,6,0,L|181:67,1,50,8|0,0:0|0:0,0:0:0:0:
227,68,109945,2,0,B|239:118|227:168,1,100,8|8,0:0|0:0,0:0:0:0:
298,237,110821,6,0,B|348:249|398:237,1,100,8|8,0:0|0:0,0:0:0:0:
444,220,111478,1,2,0:0:0:0:
475,183,111696,2,0,B|487:133|475:84,1,100,8|8,0:0|0:0,0:0:0:0:
403,12,112573,6,0,B|353:1|304:13,1,100,8|8,0:0|0:0,0:0:0:0:
256,24,113230,1,2,0:0:0:0:
256,24,113449,1,8,0:0:0:0:
287,120,113887,6,0,B|337:132|387:120,1,100,8|8,0:0|0:0,0:0:0:0:
456,190,114762,2,0,L|442:250,2,50,8|2|8,0:0|0:0|0:0,0:0:0:0:
355,190,115638,2,0,L|341:250,1,50,8|0,0:0|0:0,0:0:0:0:
308,274,116076,6,0,B|258:286|209:274,1,100,8|8,0:0|0:0,0:0:0:0:
173,238,116733,1,2,0:0:0:0:
173,238,116952,1,8,0:0:0:0:
72,238,117390,6,0,B|61:188|73:138,1,100,8|8,0:0|0:0,0:0:0:0:
143,68,118266,2,0,L|83:54,2,50,8|2|8,0:0|0:0|0:0,0:0:0:0:
178,103,118923,1,0,0:0:0:0:
213,138,119142,2,0,L|273:124,1,50,8|2,0:0|0:0,0:0:0:0:
297,90,119580,6,0,B|348:83|396:100,1,100,8|8,0:0|0:0,0:0:0:0:
457,177,120456,2,0,B|463:228|446:276,1,100,8|8,0:0|0:0,0:0:0:0:
425,320,121113,1,2,0:0:0:0:
385,347,121331,2,0,B|334:353|286:336,1,100,8|8,0:0|0:0,0:0:0:0:
215,265,122208,6,0,L|201:205,1,50,8|2,0:0|0:0,0:0:0:0:
192,167,122646,2,0,L|178:107,1,50,8|2,0:0|0:0,0:0:0:0:
180,68,123084,6,0,B|129:61|80:78,1,100,8|8,0:0|0:0,0:0:0:0:
37,101,123741,1,2,0:0:0:0:
11,141,123959,2,0,B|4:191|21:239,1,100,8|8,0:0|0:0,0:0:0:0:
92,310,124835,6,0,B|142:316|190:299,1,100,8|8,0:0|0:0,0:0:0:0:
252,222,125711,2,0,B|258:171|241:123,1,100,0|0,1:0|1:0,1:0:0:0:
199,96,126368,1,0,1:0:0:0:
199,96,126587,5,8,2:0:0:0:
108,140,127025,1,0,1:0:0:0:
108,140,127244,2,0,B|83:223|84:308,1,150,0|0,1:0|1:0,0:0:0:0:
168,340,128339,5,8,2:0:0:0:
252,284,128777,1,0,1:0:0:0:
252,284,128996,2,0,B|328:287|399:307,1,150,0|0,1:0|1:0,0:0:0:0:
500,292,130091,6,0,B|481:235|484:176,1,100,8|0,0:0|1:0,0:0:0:0:
496,144,130748,2,0,B|422:165|348:167,1,150,0|0,1:0|1:0,0:0:0:0:
256,128,131843,6,0,B|254:179|239:226,1,100,8|0,0:0|1:0,0:0:0:0:
212,268,132500,2,0,B|161:268|113:284,1,100,0|8,1:0|2:0,0:0:0:0:
68,308,133157,2,0,B|70:288|67:268|59:251,1,50,0|8,1:0|0:0,0:0:0:0:
36,216,133595,5,8,2:0:0:0:
76,124,134033,1,0,1:0:0:0:
76,124,134252,2,0,B|149:145|223:146,1,150,0|0,1:0|1:0,0:0:0:0:
312,100,135347,5,8,2:0:0:0:
312,200,135785,1,0,1:0:0:0:
312,200,136004,2,0,B|333:273|335:347,1,150,0|0,1:0|1:0,0:0:0:0:
428,308,137099,6,0,B|428:257|443:209,1,100,8|0,0:0|1:0,0:0:0:0:
472,168,137756,2,0,B|468:92|448:21,2,150,0|0|0,1:0|1:0|1:0,0:0:0:0:
444,208,139288,6,0,B|420:217|394:214,1,50,0|8,1:0|0:0,0:0:0:0:
344,212,139726,2,0,B|361:260|368:308,1,100,0|0,1:0|1:0,0:0:0:0:
358,360,140383,1,8,2:0:0:0:
358,360,140601,6,0,B|304:340|249:334,1,100,4|8,1:0|0:0,0:0:0:0:
223,302,141258,2,0,B|169:322|114:328,1,100,0|8,1:0|0:0,0:0:0:0:
86,357,141915,1,0,1:0:0:0:
44,265,142353,5,0,1:0:0:0:
105,185,142791,1,8,0:0:0:0:
105,185,143010,1,0,1:0:0:0:
64,93,143448,2,0,L|4:82,2,50,8|0|0,0:0|1:0|1:0,0:0:0:0:
112,80,144105,6,0,B|166:60|221:54,1,100,0|8,1:0|0:0,0:0:0:0:
253,33,144762,2,0,B|307:53|362:59,1,100,0|8,1:0|0:0,0:0:0:0:
390,87,145419,1,0,1:0:0:0:
329,166,145856,5,0,1:0:0:0:
409,225,146294,1,8,2:0:0:0:
409,225,146514,2,0,B|429:279|435:334,1,100,0|0,1:0|1:0,0:0:0:0:
409,366,147170,1,4,0:3:0:0:
323,314,147609,6,0,B|269:294|214:288,1,100,0|8,1:0|0:0,0:0:0:0:
176,297,148266,2,0,B|196:243|202:188,1,100,0|8,1:0|0:0,0:0:0:0:
187,151,148922,1,0,1:0:0:0:
251,74,149360,5,0,1:0:0:0:
349,59,149798,1,8,0:0:0:0:
349,59,150017,1,0,1:0:0:0:
413,135,150455,1,8,0:0:0:0:
413,135,150674,2,0,L|402:195,1,50,0|0,1:0|1:0,0:0:0:0:
373,224,151112,6,0,B|319:244|264:250,1,100,0|8,1:0|0:0,0:0:0:0:
244,209,151769,2,0,B|190:189|135:183,1,100,0|8,1:0|0:0,0:0:0:0:
97,177,152426,2,0,B|117:231|123:286,1,100,0|8,1:0|0:0,0:0:0:0:
123,323,153083,5,0,1:0:0:0:
123,323,153302,1,0,1:0:0:0:
217,357,153740,1,0,1:3:0:0:
311,323,154178,2,0,L|322:263,1,50,8|8,2:0|2:3,0:0:0:0:
326,223,154616,6,0,B|306:169|300:114,1,100,0|8,1:0|0:0,0:0:0:0:
317,78,155273,2,0,B|266:71|220:53,1,100,0|8,1:0|0:0,0:0:0:0:
182,16,155929,1,0,1:3:0:0:
87,48,156368,6,0,B|67:102|61:157,1,100,0|8,1:0|0:0,0:0:0:0:
76,192,157025,2,0,B|94:239|101:288,1,100,0|8,1:0|0:0,0:0:0:0:
108,338,157682,1,0,1:3:0:0:
205,360,158119,5,0,1:0:0:0:
301,313,158557,1,8,2:0:0:0:
301,313,158776,1,0,1:0:0:0:
398,335,159214,1,8,0:0:0:0:
398,335,159433,1,0,1:0:0:0:
469,265,159872,6,0,B|449:211|443:156,1,100,0|8,1:0|0:0,0:0:0:0:
463,121,160528,2,0,B|412:114|366:96,1,100,0|8,1:0|0:0,0:0:0:0:
317,83,161185,2,0,L|306:23,2,50,0|8|0,1:0|2:0|1:0,0:0:0:0:
282,176,162061,5,8,2:0:0:0:
282,176,162280,2,0,B|231:182|185:200,1,100,0|0,1:0|1:0,0:0:0:0:
139,180,162937,1,0,1:3:0:0:
150,80,163375,6,0,B|96:100|41:106,1,100,0|8,1:0|2:0,0:0:0:0:
34,150,164032,2,0,B|28:200|10:246,1,100,0|8,1:0|2:0,0:0:0:0:
23,295,164688,1,0,1:0:0:0:
108,346,165127,6,0,B|162:326|217:320,1,100,0|8,1:0|2:0,0:0:0:0:
254,323,165784,2,0,B|272:275|279:226,1,100,0|0,1:0|1:0,0:0:0:0:
256,182,166441,1,0,1:0:0:0:
311,98,166878,1,0,1:0:0:0:
395,150,167316,1,8,2:0:0:0:
395,150,167536,2,0,B|445:144|491:126,2,100,0|0|4,1:0|1:0|0:3,0:0:0:0:
372,194,168631,6,0,B|343:265|346:341,1,150,0|0,1:0|1:0,0:0:0:0:
246,351,169725,1,8,0:2:0:0:
246,351,169945,2,0,B|264:304|262:254,1,100,0|0,1:0|1:0,0:0:0:0:
197,176,170820,5,8,0:0:0:0:
197,177,171039,2,0,B|167:107|171:31,1,150,0|0,1:0|1:0,0:0:0:0:
74,57,172134,6,0,B|46:128|49:204,1,150,0|0,1:0|1:0,0:0:0:0:
133,257,173229,1,8,0:2:0:0:
133,257,173448,2,0,B|151:305|149:355,1,100,0|0,1:0|1:0,0:0:0:0:
244,323,174324,5,8,0:0:0:0:
244,323,174543,2,0,B|320:319|390:347,1,150,0|0,1:0|1:0,0:0:0:0:
466,283,175638,6,0,B|463:206|492:136,1,150,0|0,1:0|1:0,0:0:0:0:
424,62,176732,1,8,0:2:0:0:
424,62,176952,2,0,B|377:42|326:45,1,100,0|0,1:0|1:0,0:0:0:0:
265,124,177827,5,8,0:0:0:0:
265,124,178047,2,0,B|194:152|119:149,1,150,0|0,1:0|1:0,0:0:0:0:
59,230,179142,6,0,B|130:258|205:255,1,150,0|0,1:0|1:0,0:0:0:0:
301,223,180236,1,8,0:2:0:0:
301,223,180455,2,0,B|352:219|399:239,1,100,0|0,1:0|1:0,0:0:0:0:
386,338,181331,5,0,1:0:0:0:
387,338,181550,2,0,B|316:310|241:313,1,150,0|8,1:0|2:0,0:0:0:0:
190,226,182645,6,2,B|115:243|54:288,1,150,4|2,1:0|1:0,0:0:0:0:
122,154,183959,2,2,B|72:166|32:195,1,100,0|2,1:0|1:0,0:0:0:0:
20,95,184835,1,8,0:0:0:0:
20,95,185054,1,0,1:0:0:0:
169,82,185711,1,0,1:0:0:0:
268,74,186149,6,2,B|286:148|330:209,1,150,0|2,1:0|1:0,0:0:0:0:
359,62,187463,2,2,B|371:111|400:151,1,100,0|2,1:0|1:0,0:0:0:0:
498,173,188339,1,8,0:0:0:0:
498,173,188558,1,2,1:0:0:0:
422,238,188996,6,2,B|391:279|380:328,1,100,0|8,1:0|2:0,0:0:0:0:
330,329,189653,2,2,B|290:264|278:189,1,150,0|2,1:0|1:0,0:0:0:0:
127,183,190967,2,2,B|118:233|92:276,1,100,0|2,1:0|1:0,0:0:0:0:
10,333,191843,1,8,0:0:0:0:
10,333,192062,1,2,1:0:0:0:
159,346,192719,1,0,1:0:0:0:
208,259,193157,6,2,B|270:214|343:196,1,150,0|2,1:0|1:0,0:0:0:0:
489,161,194471,2,2,B|440:148|399:119,1,100,0|2,1:0|1:0,0:0:0:0:
365,24,195346,1,8,0:0:0:0:
365,24,195566,1,2,1:0:0:0:
302,102,196004,2,2,B|260:131|211:143,1,100,0|8,1:0|3:0,0:0:0:0:
168,168,196660,6,0,B|114:148|59:142,1,100,4|8,1:0|0:0,0:0:0:0:
28,168,197317,2,0,B|8:222|2:277,1,100,4|8,1:0|0:0,0:0:0:0:
28,308,197974,1,4,1:3:0:0:
122,340,198412,5,4,1:2:0:0:
183,261,198850,1,8,0:0:0:0:
183,261,199069,1,4,1:0:0:0:
270,309,199507,2,0,L|259:369,2,50,8|0|0,0:0|1:0|1:0,0:0:0:0:
299,268,200164,6,0,B|353:248|408:242,1,100,4|8,1:0|0:0,0:0:0:0:
430,206,200821,2,0,B|446:158|454:109,1,100,4|8,1:3|0:0,0:0:0:0:
436,62,201478,1,4,1:1:0:0:
341,29,201915,5,4,1:2:0:0:
254,79,202353,1,8,2:0:0:0:
254,79,202572,2,0,B|236:126|229:175,1,100,4|0,1:3|1:0,0:0:0:0:
243,224,203229,1,4,1:1:0:0:
151,264,203667,6,0,B|97:284|42:290,1,100,4|8,1:2|0:0,0:0:0:0:
23,248,204324,2,0,B|3:194|-3:139,1,100,4|8,1:3|0:0,0:0:0:0:
28,111,204981,1,4,1:1:0:0:
118,69,205419,5,4,1:2:0:0:
188,140,205857,1,8,0:0:0:0:
188,140,206076,1,4,1:3:0:0:
277,94,206514,1,8,0:0:0:0:
277,94,206733,2,0,L|337:105,1,50,4|8,1:1|1:0,0:0:0:0:
368,77,207171,6,0,B|422:57|477:51,1,100,12|8,2:2|0:0,0:0:0:0:
481,99,207828,2,0,B|461:153|455:208,1,100,4|8,1:3|0:0,0:0:0:0:
417,227,208485,2,0,B|437:281|443:336,1,100,4|8,1:0|0:0,0:0:0:0:
403,356,209142,5,4,1:1:0:0:
403,356,209361,1,4,1:2:0:0:
306,330,209799,1,0,1:3:0:0:
206,331,210237,2,0,L|217:271,1,50,8|8,2:0|2:3,0:0:0:0:
180,246,210675,6,0,B|160:192|154:137,1,100,4|8,1:2|0:0,0:0:0:0:
198,123,211331,2,0,B|252:143|307:149,1,100,4|8,1:3|0:0,0:0:0:0:
339,125,211988,1,4,1:0:0:0:
426,173,212426,6,0,B|406:227|400:282,1,100,4|8,1:2|0:0,0:0:0:0:
363,301,213083,2,0,B|313:294|267:276,1,100,4|8,1:3|0:0,0:0:0:0:
224,303,213739,1,4,1:1:0:0:
125,320,214178,5,4,1:2:0:0:
49,254,214616,1,8,2:0:0:0:
49,254,214835,1,4,1:3:0:0:
72,156,215273,1,8,0:0:0:0:
72,156,215492,1,4,1:1:0:0:
170,136,215930,6,0,B|190:82|196:27,1,100,4|8,1:2|0:0,0:0:0:0:
244,39,216587,2,0,B|298:19|353:13,1,100,4|8,1:3|0:0,0:0:0:0:
376,50,217244,2,0,L|436:61,2,50,4|8|4,1:0|2:0|1:2,0:0:0:0:
334,141,218120,5,8,2:0:0:0:
334,141,218339,2,0,B|354:195|360:250,1,100,4|0,1:3|1:0,0:0:0:0:
334,282,218996,1,4,1:2:0:0:
234,296,219434,6,0,B|214:242|208:187,1,100,4|8,1:3|2:0,0:0:0:0:
164,180,220091,2,0,B|114:174|68:156,1,100,4|8,1:1|2:0,0:0:0:0:
19,169,220747,1,4,1:3:0:0:
39,266,221185,6,0,B|93:286|148:292,1,100,4|8,1:2|2:0,0:0:0:0:
180,267,221842,2,0,B|187:317|205:363,1,100,4|0,1:3|1:0,0:0:0:0:
253,375,222498,1,4,1:3:0:0:
348,343,222937,1,4,1:1:0:0:
359,243,223375,1,8,2:1:0:0:
359,243,223594,2,0,B|365:193|383:147,2,100,4|0|4,1:2|1:0|0:3,0:0:0:0:
316,215,224689,6,0,B|245:244|169:241,1,150,4|4,1:2|1:3,0:0:0:0:
136,146,225784,1,8,0:2:0:0:
136,146,226003,2,0,B|183:128|233:130,1,100,4|4,1:0|1:2,0:0:0:0:
332,110,226879,5,8,0:0:0:0:
332,109,227098,2,0,B|302:179|306:255,1,150,4|0,1:3|1:0,0:0:0:0:
398,293,228193,6,0,B|426:222|423:146,1,150,4|4,1:2|1:3,0:0:0:0:
408,47,229288,1,8,0:2:0:0:
408,47,229507,2,0,B|360:65|310:63,1,100,4|4,1:0|1:2,0:0:0:0:
238,132,230383,5,8,0:0:0:0:
239,132,230601,2,0,B|168:104|93:107,1,150,4|4,1:3|1:0,0:0:0:0:
67,203,231696,6,0,B|138:232|214:229,1,150,4|4,1:2|1:3,0:0:0:0:
259,318,232791,1,8,0:2:0:0:
259,318,233010,2,0,B|212:338|161:335,1,100,4|4,1:1|1:2,0:0:0:0:
64,310,233886,5,8,0:0:0:0:
64,310,234105,2,0,B|92:239|89:164,1,150,4|4,1:3|1:2,0:0:0:0:
168,102,235200,6,0,B|196:173|193:248,1,150,4|4,1:1|1:3,0:0:0:0:
284,289,236295,1,8,0:2:0:0:
284,289,236514,2,0,B|280:238|300:191,1,100,4|0,1:0|1:0,0:0:0:0:
400,187,237390,5,12,1:2:0:0:
400,186,237609,2,0,B|372:257|375:332,1,150,4|0,1:0|1:0,0:0:0:0:
469,300,238704,5,4,1:2:0:0:
256,192,238813,12,0,243959,2:0:0:0:
